Page 1 of 2 12 LastLast
Results 1 to 10 of 14

Thread: m2ts files

  1. #1

    m2ts files

    I have a samsung BD-ES5000 player. I have no problems with most files. But I can't read "m2ts" (AVCHD files) files and "iso"files (images of DVD or BR-disks). What can I do? thanks

  2. #2
    ISO file support is coming soon, at the moment only DVD structure is supported.

    With those M2TS files - do you mean that they can't be read into KRR or they are read into KRR, but are not played back on the device? If they are in KRR, but are not playing, can you please right-click on one such file and post the output of "File Information" here (or send to support)? Do they start playing at all or does the player reject them immediately? What is the error that you get on the player?

  3. #3
    Answer:
    With those M2TS files - do you mean that they can't be read into KRR or they are read into KRR, but are not played back on the device? If they are in KRR, but are not playing, can you please right-click on one such file and post the output of "File Information" here (or send to support)? Do they start playing at all or does the player reject them immediately? What is the error that you get on the player?[/QUOTE]

    FIRST PART

    Thanks for your quick answer. These two files are played without problem inKRR with my default madiaplayer "VLC"
    First: I have no problem with this file in device: Video, DB: 4714, Thumb: 3725
    S [mpeg2video, 2], bitrate: 25000000, framerate: 24,00, level: 4, profile: 4, flags: 0x0, flags2: 0x0
    Input #0, mpegts, from 'G:\Canada-2011\Canada-diaporama-1080p\bd_MPEG2_24.00fps_1080p_16-9_25Mbps_LPCM_stereo_48000Hz_16bits_1.m2ts':
    Duration: 00:28:40.29, start: 600.000000, bitrate: 27986 kb/s

    Program 1
    Stream #0:0[0x1011]: Video: mpeg2video (Main) ([2][0][0][0] / 0x0002), yuv420p, 1920x1080 [SAR 1:1 DAR 16:9], 25000 kb/s, 24 fps, 24 tbr, 90k tbn, 48 tbc
    Stream #0:1[0x1100]: Audio: pcm_bluray (HDMV / 0x564D4448), 48000 Hz, stereo, s16, 1536 kb/s
    At least one output file must be specified
    Second: This one d'nt work at all on my Samsung BD-ES5000: I have the message in french: "format de fichier inconnu" I mean "unknown file format" and nothing else.
    Video, DB: 42, Thumb: 34
    S [mpeg2video, 2], bitrate: 18000000, framerate: 29,97, level: 4, profile: 4, flags: 0x0, flags2: 0x0
    ffmpeg version N-43161-g31d8261 Copyright (c) 2000-2012 the FFmpeg developers
    built on Aug 3 2012 12:09:29 with gcc 4.7.1 (GCC)
    configuration: --prefix=/home/dennis/out --disable-shared --enable-static --cross-prefix=i686-w64-mingw32- --arch=x86 --target-os=mingw32 --enable-cross-compile --disable-ffprobe --disable-ffplay --disable-ffserver --pkg-config=pkg-config --enable-gpl --enable-version3 --disable-w32threads --enable-memalign-hack --enable-zlib --disable-postproc --enable-libx264 --extra-libs='-lx264 -lpthread' --enable-runtime-cpudetect --extra-cflags=-I/home/dennis/cc/include --extra-ldflags=-L/home/dennis/cc/lib --enable-libmp3lame
    libavutil 51. 66.100 / 51. 66.100
    libavcodec 54. 48.100 / 54. 48.100
    libavformat 54. 22.100 / 54. 22.100
    libavdevice 54. 2.100 / 54. 2.100
    libavfilter 3. 5.101 / 3. 5.101
    libswscale 2. 1.100 / 2. 1.100
    libswresample 0. 15.100 / 0. 15.100
    [mpegts @ 0036c180] Invalid timestamps stream=0, pts=131070, dts=134073, size=10817
    [mpegts @ 0036c180] Invalid timestamps stream=0, pts=134073, dts=137076, size=9110
    [mpegts @ 0036c180] Adjusting PTS forward
    Last message repeated 1 times
    [mpegts @ 0036c180] Invalid timestamps stream=0, pts=140079, dts=143082, size=8845
    [mpegts @ 0036c180] Invalid timestamps stream=0, pts=143082, dts=146085, size=29936
    [mpegts @ 0036c180] Adjusting PTS forward
    Last message repeated 1 times
    [mpegts @ 0036c180] Invalid timestamps stream=0, pts=149088, dts=152091, size=22900
    [mpegts @ 0036c180] Invalid timestamps stream=0, pts=152091, dts=155094, size=10456
    [mpegts @ 0036c180] Adjusting PTS forward
    Last message repeated 1 times
    [mpegts @ 0036c180] Invalid timestamps stream=0, pts=158097, dts=161100, size=41959
    [mpegts @ 0036c180] Invalid timestamps stream=0, pts=161100, dts=164103, size=12867
    [mpegts @ 0036c180] Adjusting PTS forward
    Last message repeated 1 times
    [mpegts @ 0036c180] Invalid timestamps stream=0, pts=167106, dts=170109, size=55293
    [mpegts @ 0036c180] Invalid timestamps stream=0, pts=170109, dts=173112, size=7397
    [mpegts @ 0036c180] Adjusting PTS forward
    Last message repeated 1 times
    [mpegts @ 0036c180] Invalid timestamps stream=0, pts=176115, dts=179118, size=95986
    [mpegts @ 0036c180] Invalid timestamps stream=0, pts=179118, dts=182121, size=9961
    [mpegts @ 0036c180] Adjusting PTS forward
    Last message repeated 1 times

    As my text is too long I post the end on another message.
    Thanks

  4. #4
    SECOND PART OF MY MESSAGE
    [mpegts @ 0036c180] Invalid timestamps stream=0, pts=185124, dts=188127, size=24511
    [mpegts @ 0036c180] Invalid timestamps stream=0, pts=188127, dts=191130, size=16773
    [mpegts @ 0036c180] Adjusting PTS forward
    Last message repeated 1 times
    [mpegts @ 0036c180] Invalid timestamps stream=0, pts=194133, dts=197136, size=14758
    [mpegts @ 0036c180] Invalid timestamps stream=0, pts=197136, dts=200139, size=20707
    [mpegts @ 0036c180] Adjusting PTS forward
    Last message repeated 1 times
    [mpegts @ 0036c180] Invalid timestamps stream=0, pts=203142, dts=206145, size=10330
    [mpegts @ 0036c180] Invalid timestamps stream=0, pts=206145, dts=209148, size=11311
    [mpegts @ 0036c180] Adjusting PTS forward
    Last message repeated 1 times
    [mpegts @ 0036c180] Invalid timestamps stream=0, pts=212151, dts=215154, size=10630
    [mpegts @ 0036c180] Invalid timestamps stream=0, pts=215154, dts=218157, size=10633
    [mpegts @ 0036c180] Adjusting PTS forward
    Last message repeated 1 times
    [mpegts @ 0036c180] Invalid timestamps stream=0, pts=221160, dts=224163, size=21251
    [mpegts @ 0036c180] Invalid timestamps stream=0, pts=224163, dts=227166, size=19039
    [mpegts @ 0036c180] Adjusting PTS forward
    Last message repeated 1 times
    [mpegts @ 0036c180] Invalid timestamps stream=0, pts=230169, dts=233172, size=9675
    [mpegts @ 0036c180] Invalid timestamps stream=0, pts=233172, dts=236175, size=12434
    [mpegts @ 0036c180] Adjusting PTS forward
    Last message repeated 1 times
    [mpegts @ 0036c180] Invalid timestamps stream=0, pts=239178, dts=242181, size=10896
    [mpegts @ 0036c180] Invalid timestamps stream=0, pts=242181, dts=245184, size=10896
    [mpegts @ 0036c180] Adjusting PTS forward
    Last message repeated 1 times
    [mpegts @ 0036c180] Invalid timestamps stream=0, pts=248187, dts=251190, size=10860
    [mpegts @ 0036c180] Invalid timestamps stream=0, pts=251190, dts=254193, size=10860
    [mpegts @ 0036c180] Adjusting PTS forward
    Last message repeated 1 times
    [mpegts @ 0036c180] Invalid timestamps stream=0, pts=257196, dts=260199, size=10739
    [mpegts @ 0036c180] Invalid timestamps stream=0, pts=260199, dts=263202, size=10739
    [mpegts @ 0036c180] Adjusting PTS forward
    Last message repeated 1 times
    [mpegts @ 0036c180] Invalid timestamps stream=0, pts=266205, dts=269208, size=22841
    [mpegts @ 0036c180] Invalid timestamps stream=0, pts=269208, dts=272211, size=18095
    [mpegts @ 0036c180] Adjusting PTS forward
    Last message repeated 1 times
    [mpegts @ 0036c180] Invalid timestamps stream=0, pts=275214, dts=278217, size=12202
    [mpegts @ 0036c180] Invalid timestamps stream=0, pts=278217, dts=281220, size=14541
    [mpegts @ 0036c180] Adjusting PTS forward
    Last message repeated 1 times
    [mpegts @ 0036c180] Invalid timestamps stream=0, pts=284223, dts=287226, size=11916
    [mpegts @ 0036c180] Invalid timestamps stream=0, pts=287226, dts=290229, size=11916
    [mpegts @ 0036c180] Adjusting PTS forward
    Last message repeated 1 times
    [mpegts @ 0036c180] Invalid timestamps stream=0, pts=293232, dts=296235, size=10858
    [mpegts @ 0036c180] Invalid timestamps stream=0, pts=296235, dts=299238, size=10858
    [mpegts @ 0036c180] Adjusting PTS forward
    Last message repeated 1 times
    [mpegts @ 0036c180] Invalid timestamps stream=0, pts=302241, dts=305244, size=10528
    [mpegts @ 0036c180] Invalid timestamps stream=0, pts=305244, dts=308247, size=10528
    [mpegts @ 0036c180] Adjusting PTS forward
    Last message repeated 1 times
    [mpegts @ 0036c180] Invalid timestamps stream=0, pts=311250, dts=314253, size=22023
    [mpegts @ 0036c180] Invalid timestamps stream=0, pts=314253, dts=317256, size=18603
    [mpegts @ 0036c180] Adjusting PTS forward
    Last message repeated 1 times
    [mpegts @ 0036c180] Invalid timestamps stream=0, pts=320259, dts=323262, size=12378
    [mpegts @ 0036c180] Invalid timestamps stream=0, pts=323262, dts=326265, size=14277
    [mpegts @ 0036c180] Adjusting PTS forward
    Last message repeated 1 times
    [mpegts @ 0036c180] Invalid timestamps stream=0, pts=329268, dts=332271, size=11924
    [mpegts @ 0036c180] Invalid timestamps stream=0, pts=332271, dts=335274, size=11924
    [mpegts @ 0036c180] Adjusting PTS forward
    Last message repeated 1 times
    [mpegts @ 0036c180] Invalid timestamps stream=0, pts=338277, dts=341280, size=10720
    [mpegts @ 0036c180] Invalid timestamps stream=0, pts=341280, dts=344283, size=10720
    [mpegts @ 0036c180] Adjusting PTS forward
    Last message repeated 1 times
    [mpegts @ 0036c180] Invalid timestamps stream=0, pts=347286, dts=350289, size=10369
    [mpegts @ 0036c180] Invalid timestamps stream=0, pts=350289, dts=353292, size=10369
    [mpegts @ 0036c180] Adjusting PTS forward
    Last message repeated 1 times
    [mpegts @ 0036c180] Invalid timestamps stream=0, pts=356295, dts=359298, size=22096
    [mpegts @ 0036c180] Invalid timestamps stream=0, pts=359298, dts=362301, size=18664
    [mpegts @ 0036c180] Adjusting PTS forward
    Last message repeated 1 times
    [mpegts @ 0036c180] Invalid timestamps stream=0, pts=365304, dts=368307, size=12564
    [mpegts @ 0036c180] Invalid timestamps stream=0, pts=368307, dts=371310, size=14443
    [mpegts @ 0036c180] Adjusting PTS forward
    Last message repeated 1 times
    [mpegts @ 0036c180] Invalid timestamps stream=0, pts=374313, dts=377316, size=12068
    [mpegts @ 0036c180] Invalid timestamps stream=0, pts=377316, dts=380319, size=12068
    [mpegts @ 0036c180] Adjusting PTS forward
    Last message repeated 1 times
    [mpegts @ 0036c180] Invalid timestamps stream=0, pts=383322, dts=386325, size=10755
    [mpegts @ 0036c180] Invalid timestamps stream=0, pts=386325, dts=389328, size=10755
    [mpegts @ 0036c180] Adjusting PTS forward
    Last message repeated 1 times
    [mpegts @ 0036c180] Invalid timestamps stream=0, pts=392331, dts=395334, size=10384
    [mpegts @ 0036c180] Invalid timestamps stream=0, pts=395334, dts=398337, size=10384
    [mpegts @ 0036c180] Adjusting PTS forward
    Last message repeated 1 times
    [mpegts @ 0036c180] Invalid timestamps stream=0, pts=401340, dts=404343, size=22130
    [mpegts @ 0036c180] Invalid timestamps stream=0, pts=404343, dts=407346, size=18658
    [mpegts @ 0036c180] Adjusting PTS forward
    Last message repeated 1 times
    [mpegts @ 0036c180] Invalid timestamps stream=0, pts=410349, dts=413352, size=12622
    [mpegts @ 0036c180] Invalid timestamps stream=0, pts=413352, dts=416355, size=14507
    [mpegts @ 0036c180] Adjusting PTS forward
    Last message repeated 1 times
    [mpegts @ 0036c180] Invalid timestamps stream=0, pts=419358, dts=422361, size=12124
    [mpegts @ 0036c180] Invalid timestamps stream=0, pts=422361, dts=425364, size=12124
    [mpegts @ 0036c180] Adjusting PTS forward
    Last message repeated 1 times
    [mpegts @ 0036c180] Invalid timestamps stream=0, pts=428367, dts=431370, size=10756
    [mpegts @ 0036c180] Invalid timestamps stream=0, pts=431370, dts=434373, size=10756
    [mpegts @ 0036c180] Adjusting PTS forward
    Last message repeated 1 times
    [mpegts @ 0036c180] Invalid timestamps stream=0, pts=437376, dts=440379, size=10394
    [mpegts @ 0036c180] Invalid timestamps stream=0, pts=440379, dts=443382, size=10394
    [mpegts @ 0036c180] Adjusting PTS forward
    Last message repeated 1 times
    [mpegts @ 0036c180] Invalid timestamps stream=0, pts=446385, dts=449388, size=22130
    [mpegts @ 0036c180] Invalid timestamps stream=0, pts=449388, dts=452391, size=18661
    [mpegts @ 0036c180] Adjusting PTS forward
    Last message repeated 1 times
    [mpegts @ 0036c180] Invalid timestamps stream=0, pts=455394, dts=458397, size=12660
    [mpegts @ 0036c180] Invalid timestamps stream=0, pts=458397, dts=461400, size=14514
    [mpegts @ 0036c180] Adjusting PTS forward
    Last message repeated 1 times
    [mpegts @ 0036c180] Invalid timestamps stream=0, pts=464403, dts=467406, size=12125
    Input #0, mpegts, from 'G:\USA2012\00001.m2ts':
    Duration: 00:41:28.00, start: 1.456333, bitrate: 16873 kb/s
    Program 1
    Stream #0:0[0x1011]: Video: mpeg2video (Main) (HDMV / 0x564D4448), yuv420p, 1920x1080 [SAR 1:1 DAR 16:9], 18000 kb/s, 29.97 fps, 29.97 tbr, 90k tbn, 59.94 tbc
    Stream #0:1[0x1100]: Audio: ac3 (AC-3 / 0x332D4341), 48000 Hz, stereo, s16, 448 kb/s
    At least one output file must be specified
    Thanks for your help. Anyway I like much KRR and I'll buy one license.

  5. #5
    Thank you for the information and I'm glad that you like KRR!

    I suspect that the framerate of the second file is the issue here - the first file is PAL, the second is NTSC. If you have a short sample would it be possible for you to upload it somewhere on a file sharing site, so that I could download and test it here?

    In any case, please try transcoding this file from within KRR and see if it plays after that.

    You'll need to:

    1) in KRR right-click on this file and select Transcode
    2) select your device from the list near the top
    3) select a format on the right (any will do, but if you choose MPEG2 make sure it has "pal" in its name) and then tick the "Full transcoding" checkbox to completely re-code the stream
    4) once transcoding starts (you'll see in the status pane), try playing it again on the BDP and see if that works

    Another way to try is without ticking "Full transcoding" - this will simply remux the stream into another container, which may or may not work. Please try both and see what you get.

    If that works, you could try forcing the PAL region for all files on your BDP. To do that:

    1) go to Devices pane
    2) right-click on your BDP and select Edit
    3) tick the "Region" box and select PAL
    4) click OK and restart the server using the button on the toolbar
    5) try playing this file again on the BDP and see if it plays now (it should be transcoded)

    Please let me know how that goes.

  6. #6
    I did what you said: right click on my file and select transcode... and so on, and if I play after beginning of transcoding it works.
    I tried with two other files and it works using mpeg2 transcoding.
    After that i tried forcing PAL on the device pane, but it was already done.

    But after stopping everything, if a try playing my files an other time without beginning transcoding in KRR before playing on my device i have: "unknown file format"
    Thanks for your help.

  7. #7
    I just uploaded a file, i hope it may help to: "http://ul.to/uusrk8zs"
    Thanks

    File Information of this file:Video, DB: 22371, Thumb: 11962
    S [h264, 28], bitrate: 0, framerate: 50,00, level: 40, profile: 100, flags: 0x0, flags2: 0x0


    ------------------------

    ffmpeg version N-43161-g31d8261 Copyright (c) 2000-2012 the FFmpeg developers
    built on Aug 3 2012 12:09:29 with gcc 4.7.1 (GCC)
    configuration: --prefix=/home/dennis/out --disable-shared --enable-static --cross-prefix=i686-w64-mingw32- --arch=x86 --target-os=mingw32 --enable-cross-compile --disable-ffprobe --disable-ffplay --disable-ffserver --pkg-config=pkg-config --enable-gpl --enable-version3 --disable-w32threads --enable-memalign-hack --enable-zlib --disable-postproc --enable-libx264 --extra-libs='-lx264 -lpthread' --enable-runtime-cpudetect --extra-cflags=-I/home/dennis/cc/include --extra-ldflags=-L/home/dennis/cc/lib --enable-libmp3lame
    libavutil 51. 66.100 / 51. 66.100
    libavcodec 54. 48.100 / 54. 48.100
    libavformat 54. 22.100 / 54. 22.100
    libavdevice 54. 2.100 / 54. 2.100
    libavfilter 3. 5.101 / 3. 5.101
    libswscale 2. 1.100 / 2. 1.100
    libswresample 0. 15.100 / 0. 15.100
    Input #0, mpegts, from 'G:\USA2012\essai2.m2ts':
    Duration: 00:00:32.20, start: 0.941611, bitrate: 17456 kb/s
    Program 1
    Stream #0:0[0x1011]: Video: h264 (High) (HDMV / 0x564D4448), yuv420p, 1920x1080 [SAR 1:1 DAR 16:9], 50 fps, 50 tbr, 90k tbn, 50 tbc
    Stream #0:1[0x1100]: Audio: ac3 (AC-3 / 0x332D4341), 48000 Hz, stereo, s16, 192 kb/s
    At least one output file must be specified
    Last edited by jcldl; August 4th, 2012 at 10:59 PM.

  8. #8
    Thank you for the file.

    Can you please send an e-mail to support (at) kooraroo (dot) com and I'll send you an update that should fix this issue.

  9. #9
    Thank you I sent the mail.

  10. #10
    It's very strange, but it appears that either your e-mail doesn't have a "from" address or it was incorrectly processed by our helpdesk software (I'm checking it with them as well). Can you please check your "sent" message to see if it has a "from" address in it?

    If you could just PM (private message) me your e-mail here, I'll update the ticket and send you the update to fix the issue.

Bookmarks

Posting Permissions

  • You may not post new threads
  • You may not post replies
  • You may not post attachments
  • You may not edit your posts
  •