Hello, I have a FPL6008(Phillips TV 6000 Series) and I'd like to show my movies with Persian subtitle by below configurations:

===Device Definition===
01- Checked "Device" and select "Phillips TV 6000-series".
02- Checked "Enable burned-in subtitles'.
03- Set Encoding "Unicode (UTF8)" or "Arabic (1256)" because I can have UTF8 and ANSI(1256) subtitle files.
04- Select "Tahoma" font and click "Generate Font Cache".
05- Checked "Transcoding Incompatible Files".

===Options===
01- Checked "External subtitles codepage" to "Unicode (UTF8)" or "Arabic (1256)".

===File Properties===
01- In "Available Subtitles" my SRT loaded.
02- I selected "Unicode (UTF8)" or "Arabic (1256)".
03- Put 'per' for "Language" parameter.
04- Click "Update" button and can see:
[Script Info]
ScriptType: v4.00+

[V4+ Styles]
Format: Name, Fontname, Fontsize, PrimaryColour, SecondaryColour, OutlineColour, BackColour, Bold, Italic, Underline, BorderStyle, Outline, Shadow, Alignment, MarginL, MarginR, MarginV, AlphaLevel, Encoding
Style: Default,Tahoma,16,&Hffffff,&Hffffff,&H0,&H0,0,0,0, 1,1,0,2,10,10,10,0,0

[Events]
Format: Layer, Start, End, Style, Text

Also show my subtitle text correctly...

===Get File Information===
Video, DB: 1, Thumb: 0
S [h264, 28], bitrate: 0, framerate: 23.98, level: 41, profile: 100, flags: 0x0, flags2: 0x0

------------------------

ffmpeg version N-59852-g785dc14 Copyright (c) 2000-2014 the FFmpeg developers
built on Jan 15 2014 14:14:41 with gcc 4.8.0 (GCC)
configuration: --disable-shared --enable-static --arch=x86_64 --target-os=mingw32 --cross-prefix=/home/dennis/cc/mingw-w64-x86_64/bin/x86_64-w64-mingw32- --pkg-config=pkg-config --enable-gpl --enable-libx264 --enable-avisynth --enable-libxvid --enable-libmp3lame --enable-version3 --enable-zlib --enable-libopenjpeg --enable-libfreetype --enable-fontconfig --enable-libass --disable-w32threads --enable-bzlib --enable-libbluray --enable-dxva2 --enable-memalign-hack --enable-avresample --enable-runtime-cpudetect --extra-cflags=-DPTW32_STATIC_LIB --enable-libvpx
libavutil 52. 62.100 / 52. 62.100
libavcodec 55. 48.101 / 55. 48.101
libavformat 55. 23.103 / 55. 23.103
libavdevice 55. 5.102 / 55. 5.102
libavfilter 4. 1.100 / 4. 1.100
libavresample 1. 1. 0 / 1. 1. 0
libswscale 2. 5.101 / 2. 5.101
libswresample 0. 17.104 / 0. 17.104
libpostproc 52. 3.100 / 52. 3.100
Input #0, matroska,webm, from 'E:\S01E01.mkv':
Metadata:
encoder : libebml v1.0.0 + libmatroska v1.0.0
creation_time : 2011-04-18 12:31:44
Duration: 01:01:35.23, start: 0.000000, bitrate: 901 kb/s
Chapter #0.0: start 0.097000, end 3695.232000
Metadata:
title : 00:00:00.097
Stream #0:0: Video: h264 (High), yuv420p, 1280x720 [SAR 1:1 DAR 16:9], 23.98 fps, 23.98 tbr, 1k tbn, 47.95 tbc (default)
Stream #0:1: Audio: aac, 48000 Hz, stereo, fltp (default)
At least one output file must be specified


FINALLY after "Play To Device" subtitle doesn't shown!

Questions:

A. What is wrong?

B. Does Kooraroo support subtitile without transcoding?

Thank You