Results 1 to 6 of 6

Thread: Profile for Onkyo TX-NR515 AVR.

  1. #1
    Junior Member
    Join Date
    Mar 2013
    Location
    Frisco, Texas, United States
    Posts
    3

    Profile for Onkyo TX-NR515 AVR.

    Hi,
    I have an Onkyo TX-NR515 AVR.
    It's UPNP User Agent string is "User-Agent: Mediabolic-IMHTTP/1.8.225 UPNP/1.0 DLNADOC/1.50"

    It supports the following Formats:
    Code:
    MP3 (.mp3 or .MP3)
    	 MP3 files must be MPEG-1/MPEG-2 Audio Layer 3 format with sampling rates of 8 kHz, 11.025 kHz, 12 kHz, 16 kHz, 22.05 kHz, 24 kHz, 32 kHz, 44.1 kHz, 48 kHz and bitrates of between 8 kbps and 320 kbps.
    WMA (.wma or .WMA)
    	 WMA files must have the copyright option turned off.
    	 Sampling rates of 8 kHz, 11.025 kHz, 12 kHz, 16 kHz, 22.05 kHz, 24 kHz, 32 kHz, 44.1 kHz, 48 kHz, bitrates of between 5 kbps and 320 kbps, and WMA DRM are upported.
    	 WMA Pro/Voice formats are not supported.
    WMA Lossless (.wma or .WMA)
    	 Sampling rates of 44.1 kHz, 48 kHz, 88.2 kHz, 96 kHz are supported.
    	 Quantization bit: 16 bit, 24 bit
    WAV (.wav or .WAV)
    	 Sampling rates of 8 kHz, 11.025 kHz, 12 kHz, 16 kHz, 22.05 kHz, 24 kHz, 32 kHz, 44.1 kHz, 48 kHz, 64 kHz, 88.2 kHz, 96 kHz, 176.4 kHz and 192 kHz are supported.
    	 Quantization bit: 8 bit, 16 bit, 24 bit
    AAC (.aac/.m4a/.mp4/.3gp/.3g2/.AAC/.M4A/.MP4/.3GP or .3G2)
    	 Sampling rates of 8 kHz, 11.025 kHz, 12 kHz, 16 kHz, 22.05 kHz, 24 kHz, 32 kHz, 44.1 kHz, 48 kHz, 64 kHz, 88.2 kHz, 96 kHz and bitrates of between 8 kbps and 320 kbps are supported.
    FLAC (.flac or .FLAC)
    	 Sampling rates of 8 kHz, 11.025 kHz, 12 kHz, 16 kHz, 22.05 kHz, 24 kHz, 32 kHz, 44.1 kHz, 48 kHz, 64 kHz, 88.2 kHz, 96 kHz, 176.4 kHz and 192 kHz are supported.
    	 Quantization bit: 8 bit, 16 bit, 24 bit
    Ogg Vorbis (.ogg or .OGG)
    	 Sampling rates of 8 kHz, 11.025 kHz, 12 kHz, 16 kHz, 22.05 kHz, 24 kHz, 32 kHz, 44.1 kHz, 48 kHz and bitrates of between 48 kbps and 500 kbps are supported.
    LPCM (Linear PCM)
    	 Sampling rates of 8 kHz, 11.025 kHz, 12 kHz, 16 kHz, 22.05 kHz, 24 kHz, 32 kHz, 44.1 kHz, 48 kHz, 64 kHz, 88.2 kHz and 96 kHz are supported.
    	 Quantization bit: 8 bit, 16 bit, 24 bit
    * Only for playback via network.
    I'd like it to play WMA Loss-less files without transcoding. Is it possible to get a profile that would allow that?

  2. #2
    Hi,

    Thank you for the information. It looks a lot like the existing "Onkyo AVR" device profile, except for WMA lossless. Can you please right-click on one of those WMA lossless files in KRR and post the output of the "File Information" command? Once I know that, I'll add it to the device profile and I can give you that to try. In order for me to send you a device profile, please open a ticket through http://support.kooraroo.com.

  3. #3
    Junior Member
    Join Date
    Mar 2013
    Location
    Frisco, Texas, United States
    Posts
    3
    Quote Originally Posted by Dennis View Post
    Can you please right-click on one of those WMA lossless files in KRR and post the output of the "File Information" command?
    I will post a support request also.

    Code:
    Audio, DB: 6384, Thumb: 17067
    
    ------------------------
    
    ffmpeg version N-50189-g239b88c Copyright (c) 2000-2013 the FFmpeg developers
      built on Feb 23 2013 10:35:22 with gcc 4.7.2 (GCC)
      configuration: --disable-shared --enable-static --arch=x86 --target-os=mingw32 --cross-prefix=/home/dennis/cc/mingw-w64-i686/bin/i686-w64-mingw32- --pkg-config=pkg-config --enable-gpl --enable-libx264 --enable-avisynth --enable-libxvid --enable-libmp3lame --enable-version3 --enable-zlib --enable-libopenjpeg --enable-libfreetype --enable-fontconfig --enable-libass --disable-w32threads --enable-bzlib --extra-cflags=-DPTW32_STATIC_LIB --enable-libbluray --enable-libvpx --enable-dxva2 --enable-memalign-hack --enable-avresample --enable-runtime-cpudetect
      libavutil      52. 17.102 / 52. 17.102
      libavcodec     54. 92.100 / 54. 92.100
      libavformat    54. 63.100 / 54. 63.100
      libavdevice    54.  3.103 / 54.  3.103
      libavfilter     3. 39.101 /  3. 39.101
      libswscale      2.  2.100 /  2.  2.100
      libswresample   0. 17.102 /  0. 17.102
      libpostproc    52.  2.100 / 52.  2.100
    [asf @ 02389aa0] Stream #0: not enough frames to estimate rate; consider increasing probesize
    Input #0, asf, from '\\Whs2003\Music\Ripped CDs\Various Artists\Punk (Disc 1)\03.Voices Carry.wma':
      Metadata:
        track           : 03
        album_artist    : Various Artists
        album           : Punk (Disc 1)
        WM/Year         : 1996
        genre           : Rock
        WMFSDKVersion   : 11.0.5721.5145
        WMFSDKNeeded    : 0.0.0.0000
        artist          : 'til Tuesday
        title           : Voices Carry
        IsVBR           : 1
        DeviceConformanceTemplate: N1
        WM/WMADRCPeakReference: 201
        WM/WMADRCPeakTarget: 201
        WM/WMADRCAverageReference: 548
        WM/WMADRCAverageTarget: 548
      Duration: 00:04:22.53, start: 0.000000, bitrate: 891 kb/s
        Stream #0:0: Video: mjpeg, yuvj420p, 352x347 [SAR 148:148 DAR 352:347], 90k tbr, 90k tbn, 90k tbc
        Metadata:
          comment         : Cover (front)
        Stream #0:1(eng): Audio: wmalossless (c[1][0][0] / 0x0163), 44100 Hz, stereo, s16p, 1152 kb/s
    At least one output file must be specified

  4. #4
    Great, thank you for the information. Once I get the support ticket in the system, I'll send you an updated profile to try.

  5. #5
    Junior Member
    Join Date
    Mar 2013
    Location
    Frisco, Texas, United States
    Posts
    3
    Dennis,
    The support here is absolutely great. This product is awesome. I am running it on windows home server v1. I have it working now. I purchased my license today! Keep up the good work!

  6. #6
    Bill,

    Thank you - I appreciate it and I'm glad that like KooRaRoo!

Bookmarks

Posting Permissions

  • You may not post new threads
  • You may not post replies
  • You may not post attachments
  • You may not edit your posts
  •