PDA

View Full Version : problem with MP4 videos



hurvana
May 20th, 2013, 02:34 AM
I'm having a problem with certain MP4 videos, they don't play on my Samsung 2011 / D-series Smart TV. This TV nativily supports my videos, I'm able to stream with WMP 12 with no problems. So for some reason KooRaRoo doesn't play certain MP4 bluray-rips, TV says "file format unsupported". These files are MP4 with H.264 codec. Could it be an issue with Kooraroo's device profiles for the Samsung D-series? I've disabled transcoding since Samsung supports all my stuff. Or possibly it's to do with the audio codec? The MP4's that don't work, all tend to have 6CH AAC sound.

Dennis
May 20th, 2013, 09:28 AM
Can you please right-click on one of those files in KRR and post the output of the "File Information" command (or send it through http://support.kooraroo.com) - it could be the file description or the audio or perhaps the video encoding, I'll know better once I see the information about the file.

hurvana
May 20th, 2013, 10:45 PM
Video, DB: 220, Thumb: 1194
S [h264, 28], bitrate: 1869665, framerate: 24,00, level: 51, profile: 100, flags: 0x0, flags2: 0x0


------------------------

ffmpeg version N-52647-gc1f2c4c Copyright (c) 2000-2013 the FFmpeg developers
built on May 2 2013 09:55:19 with gcc 4.7.2 (GCC)
configuration: --disable-shared --enable-static --arch=x86 --target-os=mingw32 --cross-prefix=/home/dennis/cc/mingw-w64-i686/bin/i686-w64-mingw32- --pkg-config=pkg-config --enable-gpl --enable-libx264 --enable-avisynth --enable-libxvid --enable-libmp3lame --enable-version3 --enable-zlib --enable-libopenjpeg --enable-libfreetype --enable-fontconfig --enable-libass --disable-w32threads --enable-bzlib --enable-libbluray --enable-dxva2 --enable-memalign-hack --enable-avresample --enable-runtime-cpudetect --extra-cflags=-DPTW32_STATIC_LIB
libavutil 52. 27.101 / 52. 27.101
libavcodec 55. 6.100 / 55. 6.100
libavformat 55. 4.100 / 55. 4.100
libavdevice 55. 0.100 / 55. 0.100
libavfilter 3. 62.100 / 3. 62.100
libavresample 1. 1. 0 / 1. 1. 0
libswscale 2. 2.100 / 2. 2.100
libswresample 0. 17.102 / 0. 17.102
libpostproc 52. 3.100 / 52. 3.100
Input #0, mov,mp4,m4a,3gp,3g2,mj2, from 'E:\Hanna.2011.720p.BRRip.x264.AAC-ViSiON.mp4':
Metadata:
major_brand : isom
minor_version : 1
compatible_brands: isom
creation_time : 2011-07-26 12:45:07
Duration: 01:50:50.92, start: 0.000000, bitrate: 2190 kb/s
Stream #0:0(und): Video: h264 (High) (avc1 / 0x31637661), yuv420p, 1280x544 [SAR 1:1 DAR 40:17], 1869 kb/s, 24 fps, 24 tbr, 5000k tbn, 48 tbc
Metadata:
creation_time : 2011-07-26 09:03:30
handler_name : GPAC ISO Video Handler
Stream #0:1(und): Audio: aac (mp4a / 0x6134706D), 48000 Hz, 5.1, fltp, 317 kb/s
Metadata:
creation_time : 2011-07-26 12:45:52
handler_name : Imported with GPAC 0.4.6-DEV (build 1)
At least one output file must be specified

Dennis
May 21st, 2013, 09:12 AM
Thank you for the file information. The current profile for the D-series TVs will attempt to remux such files (because of the 5.1 AAC audio stream), so we need to test two things - first is whether the TV can play these natively over DLNA and second if the current file description as delivered by KRR for such files is what the TV expects. I suspect one of those changes will make it work properly.

The easiest way to do this is if you can open a ticket through http://support.kooraroo.com and I'll send you an updated device profile to try.