PDA

View Full Version : Bug: Server crash when viewing a movie on Samsung TV



JMG
January 28th, 2015, 04:42 AM
Hi!

The server crashes every time want to view one specific movie on my Samsung TV (UE32F5305AKXXE). Below is the file information for the movie that causes the crash:


Video, DB: 10, Thumb: 38
S [h264, 28], bitrate: 1227149, framerate: 25,00, level: 30, profile: 77, flags: 0x0, flags2: 0x0


------------------------

ffmpeg version N-60987-gd46c3b8 Copyright (c) 2000-2014 the FFmpeg developers
built on Mar 1 2014 10:29:38 with gcc 4.8.0 (GCC)
configuration: --disable-shared --enable-static --arch=x86 --target-os=mingw32 --cross-prefix=/home/dennis/cc/mingw-w64-i686/bin/i686-w64-mingw32- --pkg-config=pkg-config --enable-gpl --enable-libx264 --enable-avisynth --enable-libxvid --enable-libmp3lame --enable-version3 --enable-zlib --enable-libopenjpeg --enable-libfreetype --enable-fontconfig --enable-libass --disable-w32threads --enable-bzlib --enable-libbluray --enable-dxva2 --enable-memalign-hack --enable-avresample --enable-runtime-cpudetect --extra-cflags=-DPTW32_STATIC_LIB --enable-libvpx
libavutil 52. 66.100 / 52. 66.100
libavcodec 55. 52.102 / 55. 52.102
libavformat 55. 33.100 / 55. 33.100
libavdevice 55. 10.100 / 55. 10.100
libavfilter 4. 2.100 / 4. 2.100
libavresample 1. 2. 0 / 1. 2. 0
libswscale 2. 5.101 / 2. 5.101
libswresample 0. 18.100 / 0. 18.100
libpostproc 52. 3.100 / 52. 3.100
Input #0, mov,mp4,m4a,3gp,3g2,mj2, from 'E:\Gemensamt\Filmer\Barnfilmer\Karlsson på taket.m4v':
Metadata:
major_brand : mp42
minor_version : 0
compatible_brands: mp42isomavc1
creation_time : 2013-12-30 13:51:17
encoder : HandBrake 0.9.6 2012022800
Duration: 01:35:20.21, start: 0.000000, bitrate: 1391 kb/s
Chapter #0.0: start -0.080000, end 311.400000
Metadata:
title : Chapter 1
Chapter #0.1: start 311.400000, end 406.459544
Metadata:
title : Chapter 2
Chapter #0.2: start 406.459544, end 688.219544
Metadata:
title : Chapter 3
Chapter #0.3: start 688.219544, end 1021.819544
Metadata:
title : Chapter 4
Chapter #0.4: start 1021.819544, end 1314.619544
Metadata:
title : Chapter 5
Chapter #0.5: start 1314.619544, end 1809.019544
Metadata:
title : Chapter 6
Chapter #0.6: start 1809.019544, end 2254.659544
Metadata:
title : Chapter 7
Chapter #0.7: start 2254.659544, end 2532.151478
Metadata:
title : Chapter 8
Chapter #0.8: start 2532.151478, end 2911.351478
Metadata:
title : Chapter 9
Chapter #0.9: start 2911.351478, end 3351.991478
Metadata:
title : Chapter 10
Chapter #0.10: start 3351.991478, end 3563.671478
Metadata:
title : Chapter 11
Chapter #0.11: start 3563.671478, end 3854.391478
Metadata:
title : Chapter 12
Chapter #0.12: start 3854.391478, end 4115.583611
Metadata:
title : Chapter 13
Chapter #0.13: start 4115.583611, end 4420.863611
Metadata:
title : Chapter 14
Chapter #0.14: start 4420.863611, end 4673.823611
Metadata:
title : Chapter 15
Chapter #0.15: start 4673.823611, end 5147.103611
Metadata:
title : Chapter 16
Chapter #0.16: start 5147.103611, end 5625.183611
Metadata:
title : Chapter 17
Chapter #0.17: start 5625.183611, end 5720.214967
Metadata:
title : Chapter 18
Stream #0:0(und): Video: h264 (Main) (avc1 / 0x31637661), yuv420p(tv, smpte170m), 718x576 [SAR 64:45 DAR 718:405], 1227 kb/s, 25 fps, 25 tbr, 90k tbn, 180k tbc (default)
Metadata:
creation_time : 2013-12-30 13:51:17
Stream #0:1(swe): Audio: aac (mp4a / 0x6134706D), 48000 Hz, stereo, fltp, 159 kb/s (default)
Metadata:
creation_time : 2013-12-30 13:51:17
Stream #0:2(und): Subtitle: mov_text (text / 0x74786574)
Metadata:
creation_time : 2013-12-30 13:51:17
At least one output file must be specified




And here is the Error Signature:

szAppName : KooRaRooMediaServer.exe szAppVer : 2.4.0.0
szModName : msvcr100.dll szModVer : 10.0.40219.1 offset : 00001ed7

/JMG

Dennis
February 22nd, 2015, 06:50 AM
Hi JMG

I'll review the log and try to find out the root.

DS