PDA

View Full Version : FLAC 24b/96kHz - intermittent silent gap or skip entire file (using 2.3.1 free)



boxerfan88
April 30th, 2014, 01:10 AM
I noticed recently with 24bit/96kHz FLAC files, the RX-A3030 AVR intermittently skips tracks (plays 5-10sec then skip), or has silent gaps of 2-3 secs during track playback. Does not seem to happen for 16bit/44.1kHz files.

Here's one example of the track file info:

Audio, DB: 8119, Thumb: 4477

------------------------

ffmpeg version N-60987-gd46c3b8 Copyright (c) 2000-2014 the FFmpeg developers
built on Mar 1 2014 10:29:38 with gcc 4.8.0 (GCC)
configuration: --disable-shared --enable-static --arch=x86 --target-os=mingw32 --cross-prefix=/home/dennis/cc/mingw-w64-i686/bin/i686-w64-mingw32- --pkg-config=pkg-config --enable-gpl --enable-libx264 --enable-avisynth --enable-libxvid --enable-libmp3lame --enable-version3 --enable-zlib --enable-libopenjpeg --enable-libfreetype --enable-fontconfig --enable-libass --disable-w32threads --enable-bzlib --enable-libbluray --enable-dxva2 --enable-memalign-hack --enable-avresample --enable-runtime-cpudetect --extra-cflags=-DPTW32_STATIC_LIB --enable-libvpx
libavutil 52. 66.100 / 52. 66.100
libavcodec 55. 52.102 / 55. 52.102
libavformat 55. 33.100 / 55. 33.100
libavdevice 55. 10.100 / 55. 10.100
libavfilter 4. 2.100 / 4. 2.100
libavresample 1. 2. 0 / 1. 2. 0
libswscale 2. 5.101 / 2. 5.101
libswresample 0. 18.100 / 0. 18.100
libpostproc 52. 3.100 / 52. 3.100
Input #0, flac, from 'C:\MUSIC\Import\Susan Wong - My Live Stories\16 - Do That To Me One More Time.flac':
Metadata:
track : 16
TITLE : Do That To Me One More Time
ARTIST : Susan Wong
ALBUM : My Live Stories
GENRE : Rock / Pop
DATE : 2012
Duration: 00:03:58.39, bitrate: 2918 kb/s
Stream #0:0: Audio: flac, 96000 Hz, stereo, s32
Stream #0:1: Video: mjpeg, yuvj420p(pc), 600x600 [SAR 300:300 DAR 1:1], 90k tbr, 90k tbn, 90k tbc
Metadata:
comment : Cover (front)
At least one output file must be specified

KRR Team
May 2nd, 2014, 10:38 AM
Hi boxerfan,

Could you please send to me the program logs by using the following procedure:
Enable logging by ticking the Enable Logging item under the Tools menu. After that restart the server using the stop/start button on the toolbar and try to play the file again. Once that fails, stop the server and send the logs to support at kooraroo.com. To find the logs, please go to Tools -> Options -> File Locations and click the Open button on the Logs folder. Thank you

-AR

boxerfan88
May 3rd, 2014, 10:03 PM
Logfile sent via email.

KRR Team
May 4th, 2014, 04:49 AM
Received, thank you. I'll get back to you as soon as we have news on this.

-AR