PDA

View Full Version : Problems with playing some formats



mijan
December 19th, 2012, 02:20 AM
Hello,

I have problems with playing a video file, my TV says "This file is invalid" bellow you have the info:

KRR Info


Video, DB: 6, Thumb: 7
S [mpeg4, 13], bitrate: 0, framerate: 25.00, level: 5, profile: 15, flags: 0x0, flags2: 0x0


------------------------

ffmpeg version N-47402-g5e2be27 Copyright (c) 2000-2012 the FFmpeg developers
built on Dec 3 2012 15:16:02 with gcc 4.7.1 (GCC)
configuration: --enable-memalign-hack --arch=x86 --enable-gpl --enable-libx264 --enable-avisynth --target-os=mingw32 --cross-prefix=i686-w64-mingw32- --pkg-config=pkg-config --enable-libmp3lame --enable-version3 --extra-libs=-lws2_32 --enable-zlib --extra-libs=-lwinmm --extra-libs=-lgdi32 --enable-gnutls --enable-libass --enable-avresample --disable-w32threads --enable-runtime-cpudetect --disable-ffplay --disable-ffserver --enable-memalign-hack
libavutil 52. 11.101 / 52. 11.101
libavcodec 54. 78.101 / 54. 78.101
libavformat 54. 42.100 / 54. 42.100
libavdevice 54. 3.102 / 54. 3.102
libavfilter 3. 23.105 / 3. 23.105
libswscale 2. 1.103 / 2. 1.103
libswresample 0. 17.101 / 0. 17.101
libpostproc 52. 2.100 / 52. 2.100
Input #0, avi, from 'D:\DLNA\-\-.avi':
Duration: 01:42:47.80, start: 0.000000, bitrate: 1900 kb/s
Stream #0:0: Video: mpeg4 (Advanced Simple Profile) (XVID / 0x44495658), yuv420p, 720x400 [SAR 1:1 DAR 9:5], 25 tbr, 25 tbn, 25 tbc
Stream #0:1: Audio: ac3 ([0] [0][0] / 0x2000), 48000 Hz, 5.1(side), s16, 384 kb/s
Metadata:
title : lock - [1] English 6ms_audio
At least one output file must be specified


Media Info


General
Complete name : D:\DLNA\-\-.avi
Format : AVI
Format/Info : Audio Video Interleave
File size : 1.36 GiB
Duration : 1h 42mn
Overall bit rate : 1 901 Kbps

Video
ID : 0
Format : MPEG-4 Visual
Format profile : Advanced Simple@L5
Format settings, BVOP : No
Format settings, QPel : Yes
Format settings, GMC : No warppoints
Format settings, Matrix : Default (H.263)
Codec ID : XVID
Codec ID/Hint : XviD
Duration : 1h 42mn
Bit rate : 1 509 Kbps
Width : 720 pixels
Height : 400 pixels
Display aspect ratio : 16:9
Frame rate : 25.000 fps
Color space : YUV
Chroma subsampling : 4:2:0
Bit depth : 8 bits
Scan type : Progressive
Compression mode : Lossy
Bits/(Pixel*Frame) : 0.210
Stream size : 1.08 GiB (79%)
Writing library : XviD 1.2.1 (UTC 2008-12-04)

Audio
ID : 1
Format : AC-3
Format/Info : Audio Coding 3
Mode extension : CM (complete main)
Format settings, Endianness : Big
Codec ID : 2000
Duration : 1h 42mn
Bit rate mode : Constant
Bit rate : 384 Kbps
Channel(s) : 6 channels
Channel positions : Front: L C R, Side: L R, LFE
Sampling rate : 48.0 KHz
Bit depth : 16 bits
Compression mode : Lossy
Stream size : 282 MiB (20%)
Alignment : Aligned on interleaves
Interleave, duration : 64 ms (1.60 video frames)
Interleave, preload duration : 192 ms
Title : lock - [1] English 6ms_audio


Also KRR should support streaming from ISOs directly to TV?

Thanks

Dennis
December 19th, 2012, 08:10 AM
Hello,

I have problems with playing a video file, my TV says "This file is invalid" bellow you have the info:


Thanks for the file info! I think the problem is that the file is Xvid, while the TV's specs say it only supports DivX. Once I send you a new device profile to try (as per the other thread), it should play.



Also KRR should support streaming from ISOs directly to TV?

Not at the moment, but work has started on that feature as well.